#TITLE:lalalove;
#SUBTITLE:;
#ARTIST:Ann Winsborn;
#TITLETRANSLIT:;
#SUBTITLETRANSLIT:;
#ARTISTTRANSLIT:;
#CREDIT:;
#BANNER:lalalove-logo.jpg;
#BACKGROUND:lalalove.jpg;
#LYRICSPATH:;
#CDTITLE:Lan.png;
#MUSIC:lalalove.mp3;
#OFFSET:-0.040;
#SAMPLESTART:100.000;
#SAMPLELENGTH:12.000;
#SELECTABLE:YES;
#BPMS:0.000=125.000;
#STOPS:;
#BGCHANGES:;
// cache tags:
#FIRSTBEAT:32.000;
#LASTBEAT:272.000;
#SONGFILENAME:Songs/SDO/lalalove/lalalove.sm;
#HASMUSIC:1;
#HASBANNER:1;
#MUSICLENGTH:132.222;
// end cache tags

//---------------dance-single - sky----------------
#NOTES:
     dance-single:
     sky:
     Hard:
     8:
     0.740,0.900,1.000,0.113,0.072,490.000,167.000,15.000,0.000,26.000:

0000
0000
0000
0000
,
0000
0000
0000
0000
,
0000
0000
0000
0000
,
0000
0000
0000
0000
,
0000
0000
0000
0000
,
0000
0000
0000
0000
,
0000
0000
0000
0000
,
0000
0000
0000
0000
,
0011
0000
0110
0000
1100
0000
1001
0000
1010
0000
0101
0000
1100
0110
0011
0000
,
0101
0010
1000
0100
0010
0001
0010
0100
,
1000
0010
0100
0001
0010
0100
1000
0010
,
0100
0001
1000
0010
0100
0001
1000
0100
,
0010
0100
0010
0001
0100
0010
1000
0010
,
0201
0000
0010
0000
1000
0000
0011
0300
1000
0000
0010
0000
0100
0000
0001
0000
,
0010
1000
0010
0100
0001
0010
0100
1000
,
0010
0100
0001
0010
1000
0010
0100
0001
,
1000
0000
0100
0000
0010
0000
0001
0000
1000
0100
0010
0001
1000
0100
0010
0001
,
1110
0100
0011
0100
1010
0001
0110
0001
,
1010
0100
0101
0010
1010
0100
1001
0010
,
0101
0010
1001
0100
0011
0100
1010
0100
,
0101
0010
1100
0100
0011
0010
1001
0100
,
1010
0100
0011
0010
1001
0010
1100
0100
,
0011
0100
1001
0100
1010
0001
0101
0010
,
1001
0100
0011
0100
1010
0001
1100
0010
,
0101
0000
0010
0000
0101
0000
2120
0000
0001
0000
0100
0000
0001
0000
0100
3030
,
0111
0010
1100
0010
0101
0010
1001
0100
,
0110
1000
0101
0010
1100
0100
0101
0010
,
1100
0100
0011
0100
0101
0010
1001
0010
,
0101
0010
1010
0100
1100
1000
1001
0010
,
0101
0010
1001
0100
0101
0010
1001
0100
,
0011
0100
1001
0010
0101
0010
1100
0100
,
0101
0010
1100
0100
1010
0100
1001
0100
,
0011
0000
0110
0000
1100
0000
0101
0000
1010
0000
0101
0000
0110
0110
0110
0000
,
1101
0010
0100
0001
1010
1000
0010
0100
,
1001
0010
1000
0100
0110
0001
1000
0010
,
0101
0010
1000
0100
0011
0001
1000
0100
,
1010
0001
0010
0100
1001
0010
1000
0100
,
1021
0000
0100
0000
0001
0000
1100
0030
0100
0000
0001
0000
0010
0000
1000
0000
,
0101
0001
0100
0010
1010
0100
0001
0010
,
1100
0010
0100
0010
1001
0010
0100
1000
,
0102
0000
1000
0000
0010
0000
0100
0003
1100
1100
0011
0011
1001
0110
1001
0110
,
1011
0001
0100
0010
1100
0100
0010
0001
,
1010
0100
0010
0001
1001
0100
0010
0001
,
0101
0010
1000
0010
1100
0001
0010
1000
,
0011
0100
0010
1000
0101
0001
0010
1000
,
0121
0000
0100
0000
1000
0000
0101
0030
1000
0000
0010
0000
0100
0000
1000
0000
,
0011
0100
1000
0010
0101
0010
0100
1000
,
1100
0100
0001
0100
1010
0100
0001
0010
,
1100
0000
1100
0000
1100
0000
1100
0000
0011
0000
0110
0000
1100
1100
1100
1100
,
0111
0010
1000
0010
0101
0010
0100
1000
,
1010
0100
1000
0100
0101
0010
0100
0010
,
1001
0010
0100
1000
1100
0100
0010
0010
,
0011
0100
1000
0001
0101
0010
0100
1000
,
0212
0000
1000
0000
1000
0000
0010
0303
1000
0000
0010
0000
0100
0000
0001
0000
,
1010
0100
0001
0010
1001
0100
0010
1000
,
0011
0100
0010
0100
1010
0100
0010
0001
,
0102
0000
0010
0000
1000
0000
0010
0003
1100
0011
1100
0011
1100
1100
1100
1100
,
0111
0010
1000
0010
0101
0010
0100
1000
,
1010
0100
0010
0001
1010
0100
0001
0010
,
1001
0100
0010
0100
1010
0100
0010
0001
,
0110
1000
0001
0010
1010
0100
1000
0100
,
1022
0000
0100
0000
1000
0000
0100
0033
1000
0000
0010
0000
0100
0000
0001
0000
,
1010
0100
0001
0010
1100
0100
0010
0100
,
1001
0100
0010
1000
0101
0010
1000
0100
,
0011
0001
0100
1000
0101
0010
0100
0001
,
2010
0000
0100
0000
0001
0000
0010
0000
0100
0000
0001
3010
0001
0010
0100
1000
,
0111
0010
1000
0000
0010
0100
1000
0222
,
0000
0000
0000
0000
,
0333
0000
0000
0000
;
